<?xml version="1.0" standalone="no"?>
<!DOCTYPE svg PUBLIC "-//W3C//DTD SVG 1.1//EN" "http://www.w3.org/Graphics/SVG/1.1/DTD/svg11.dtd" >
<svg xmlns="http://www.w3.org/2000/svg" xmlns:xlink="http://www.w3.org/1999/xlink" version="1.1">
<metadata></metadata>
<defs>
<font id="haleboplight" horiz-adv-x="595" >
<font-face units-per-em="1000" ascent="750" descent="-250" />
<missing-glyph horiz-adv-x="220" />
<glyph unicode="fi" horiz-adv-x="568" d="M7 420v43h83v51q0 56 37.5 93t93.5 37h92v-46h-87q-37 0 -60.5 -23t-23.5 -60v-52h314v-420h88v-43h-228v43h88v377h-262v-420h-52v420h-83zM395 614v7q0 13 9.5 22t21.5 9h8q12 0 21.5 -9t9.5 -22v-7q0 -13 -9.5 -22.5t-21.5 -9.5h-8q-12 0 -21.5 9.5t-9.5 22.5z" />
<glyph unicode="fl" horiz-adv-x="469" d="M7 420v43h83v51q0 56 37.5 93t93.5 37h181v-531q0 -65 6 -113h-52q-6 42 -6 96v502h-124q-37 0 -60.5 -23t-23.5 -60v-52h126v-43h-126v-420h-52v420h-83z" />
<glyph horiz-adv-x="0" />
<glyph horiz-adv-x="0" />
<glyph unicode="&#xd;" horiz-adv-x="220" />
<glyph unicode=" "  horiz-adv-x="220" />
<glyph unicode="&#x09;" horiz-adv-x="220" />
<glyph unicode="&#xa0;" horiz-adv-x="220" />
<glyph unicode="!" horiz-adv-x="173" d="M50 30v7q0 13 9.5 22.5t22.5 9.5h8q13 0 23 -9.5t10 -22.5v-7q0 -13 -10 -23t-23 -10h-8q-13 0 -22.5 10t-9.5 23zM58 473v173h55v-173l-8 -266h-38z" />
<glyph unicode="&#x22;" horiz-adv-x="278" d="M64 646h45l-5 -173h-36zM169 646h45l-5 -173h-36z" />
<glyph unicode="#" horiz-adv-x="510" d="M45 193v35h95l21 189h-93v35h97l22 201h38l-22 -201h142l22 201h38l-22 -201h82v-35h-86l-21 -189h84v-35h-88l-22 -200h-38l22 200h-142l-22 -200h-38l22 200h-91zM178 228h142l21 189h-142z" />
<glyph unicode="$" horiz-adv-x="501" d="M44 101l37 28l57 -56q25 -25 58 -25h140l57 59v99q0 29 -15.5 50t-42.5 28l-175 45q-42 11 -69 46.5t-27 84.5v72q0 22 17 39l55 57q15 16 43 16h49v81h39v-81h35q56 0 95 -42l55 -59l-39 -30l-56 58q-24 25 -57 25h-124l-57 -59v-81q0 -29 15.5 -50t42.5 -28l175 -45 q42 -11 69 -46.5t27 -84.5v-90q0 -22 -17 -39l-55 -57q-15 -16 -43 -16h-66v-79h-39v79h-44q-49 0 -86 42z" />
<glyph unicode="%" horiz-adv-x="608" d="M48 419v185q0 10 7 17l24 24q6 7 19 7h97q13 0 19 -7l24 -24q7 -7 7 -17v-185q0 -10 -7 -17l-24 -24q-6 -7 -19 -7h-97q-13 0 -19 7l-24 24q-7 7 -7 17zM71 417l25 -26h101l25 26v189l-25 26h-101l-25 -26v-189zM117 0l354 652h24l-354 -652h-24zM365 48v185q0 10 7 17 l24 24q6 7 19 7h97q13 0 19 -7l24 -24q7 -7 7 -17v-185q0 -10 -7 -17l-24 -24q-6 -7 -19 -7h-97q-13 0 -19 7l-24 24q-7 7 -7 17zM388 46l25 -26h101l25 26v189l-25 26h-101l-25 -26v-189z" />
<glyph unicode="&#x26;" horiz-adv-x="541" d="M63 123v118q0 22 17 39l45 46q-51 40 -51 110v104q0 22 17 39l55 57q15 16 43 16h109q56 0 95 -42l55 -59l-39 -30l-56 58q-24 25 -57 25h-110l-57 -59v-110q0 -36 20 -59.5t53 -23.5h297v-47h-57v-201q0 -22 -17 -39l-55 -57q-15 -16 -43 -16h-132q-56 0 -94 37.5 t-38 93.5zM118 122q0 -36 22.5 -59t58.5 -23h131l57 59v206h-212l-57 -59v-124z" />
<glyph unicode="'" horiz-adv-x="229" d="M92 646h45l-5 -173h-36z" />
<glyph unicode="(" horiz-adv-x="235" d="M62 317q0 81 17.5 162.5t49.5 130.5q19 28 75 74l15 -10l-40 -58q-22 -32 -43.5 -133.5t-21.5 -165.5q0 -65 21.5 -168.5t43.5 -135.5l40 -58l-15 -10q-58 48 -75 74q-32 49 -49.5 133t-17.5 165z" />
<glyph unicode=")" horiz-adv-x="235" d="M16 -45l40 58q22 32 43.5 135.5t21.5 168.5q0 64 -21.5 165.5t-43.5 133.5l-40 58l15 10q56 -46 75 -74q32 -49 49.5 -130.5t17.5 -162.5t-17.5 -165t-49.5 -133q-17 -26 -75 -74z" />
<glyph unicode="*" horiz-adv-x="504" d="M129 540l15 43l27 -9l65 -32l-6 76v28h46v-28l-9 -76l66 32l27 9l15 -43l-26 -10l-69 -20l49 -46l17 -22l-35 -29l-18 21l-41 57l-41 -57l-18 -21l-35 29l17 22l49 46l-69 20z" />
<glyph unicode="+" horiz-adv-x="575" d="M90 291v41h178v178h41v-178h178v-41h-178v-178h-41v178h-178z" />
<glyph unicode="," horiz-adv-x="145" d="M38 30v7q0 13 8.5 22.5t20.5 9.5h9q13 0 21.5 -9.5t8.5 -22.5v-7q0 -17 -7 -32l-29 -63h-29l26 62q-12 1 -20.5 10t-8.5 23z" />
<glyph unicode="-" horiz-adv-x="203" d="M9 272v41h185v-41h-185z" />
<glyph unicode="." horiz-adv-x="174" d="M51 30v7q0 13 9.5 22.5t22.5 9.5h8q13 0 23 -9.5t10 -22.5v-7q0 -13 -10 -23t-23 -10h-8q-13 0 -22.5 10t-9.5 23z" />
<glyph unicode="/" horiz-adv-x="435" d="M0 -123l401 775h34l-401 -775h-34z" />
<glyph unicode="0" horiz-adv-x="533" d="M63 123v417q0 22 17 39l55 57q15 16 43 16h160q56 0 94 -37.5t38 -93.5v-417q0 -22 -17 -39l-55 -57q-15 -16 -43 -16h-160q-56 0 -94 37.5t-38 93.5zM118 122q0 -36 22.5 -59t58.5 -23h159l57 59v423q0 36 -22.5 59t-58.5 23h-159l-57 -59v-423z" />
<glyph unicode="1" horiz-adv-x="433" d="M62 584l93 46q32 16 57 16h37v-602h122v-44h-300v44h123v553l-111 -48z" />
<glyph unicode="2" horiz-adv-x="485" d="M39 549l79 88q15 15 42 15h129q56 0 94 -37.5t38 -93.5v-109q0 -25 -17 -39l-313 -239v-86h331v-48h-378v128q0 30 26 51l296 227v116q0 36 -22.5 59t-58.5 23h-127l-82 -85z" />
<glyph unicode="3" horiz-adv-x="499" d="M39 93l39 30l56 -58q24 -25 57 -25h133l57 59v120q0 36 -20 59t-53 23h-90v47h96l58 60v114q0 36 -22.5 59t-58.5 23h-122l-82 -82l-37 27l79 88q15 15 42 15h124q56 0 94 -37.5t38 -93.5v-108q0 -22 -17 -39l-38 -39q30 -16 47 -47t17 -70v-114q0 -22 -17 -39l-55 -57 q-15 -16 -43 -16h-132q-56 0 -95 42z" />
<glyph unicode="4" horiz-adv-x="490" d="M24 151v43l301 452h68v-447h71v-48h-71v-151h-55v151h-314zM77 199h261v387z" />
<glyph unicode="5" horiz-adv-x="519" d="M48 93l37 28l57 -56q25 -25 58 -25h145l57 59v159q0 36 -22.5 59t-58.5 23h-229v304h348v-48h-298v-208h183q56 0 94 -37.5t38 -93.5v-153q0 -22 -17 -39l-55 -57q-15 -16 -43 -16h-154q-48 0 -86 42z" />
<glyph unicode="6" horiz-adv-x="525" d="M63 123v417q0 22 17 39l55 57q15 16 43 16h130q56 0 95 -42l55 -59l-39 -30l-56 58q-24 25 -57 25h-131l-57 -59v-158h212q56 0 94 -37.5t38 -93.5v-152q0 -22 -17 -39l-55 -57q-15 -16 -43 -16h-152q-56 0 -94 37.5t-38 93.5zM118 122q0 -36 22.5 -59t58.5 -23h151 l57 59v158q0 36 -22.5 59t-58.5 23h-208v-217z" />
<glyph unicode="7" horiz-adv-x="429" d="M24 596v48h379v-69q0 -23 -15 -55l-262 -520h-63l277 543q7 14 7 29v24h-323z" />
<glyph unicode="8" horiz-adv-x="516" d="M63 123v111q0 22 17 39l47 47q-53 41 -53 109v111q0 22 17 39l55 57q15 16 43 16h121q56 0 94 -37.5t38 -93.5v-111q0 -22 -17 -39l-38 -39q66 -36 66 -117v-111q0 -22 -17 -39l-55 -57q-15 -16 -43 -16h-143q-56 0 -94 37.5t-38 93.5zM118 122q0 -36 22.5 -59t58.5 -23 h142l57 59v117q0 36 -22 59t-57 23h-144l-57 -59v-117zM129 428q0 -36 22 -59t57 -23h122l57 59v117q0 36 -22.5 59t-58.5 23h-120l-57 -59v-117z" />
<glyph unicode="9" horiz-adv-x="525" d="M63 398v142q0 22 17 39l55 57q15 16 43 16h152q56 0 94 -37.5t38 -93.5v-417q0 -22 -17 -39l-55 -57q-15 -16 -43 -16h-130q-56 0 -95 42l-55 59l39 30l56 -58q24 -25 57 -25h131l57 59v168h-212q-56 0 -94 37.5t-38 93.5zM118 397q0 -36 22.5 -59t58.5 -23h208v207 q0 36 -22.5 59t-58.5 23h-151l-57 -59v-148z" />
<glyph unicode=":" horiz-adv-x="198" d="M62 30v7q0 13 9.5 22.5t22.5 9.5h8q13 0 23 -9.5t10 -22.5v-7q0 -13 -10 -23t-23 -10h-8q-13 0 -22.5 10t-9.5 23zM62 419v7q0 13 9.5 22.5t22.5 9.5h8q13 0 23 -9.5t10 -22.5v-7q0 -13 -10 -23t-23 -10h-8q-13 0 -22.5 10t-9.5 23z" />
<glyph unicode=";" horiz-adv-x="173" d="M42 419v7q0 13 9.5 22.5t22.5 9.5h8q13 0 23 -9.5t10 -22.5v-7q0 -13 -10 -23t-23 -10h-8q-13 0 -22.5 10t-9.5 23zM44 30v7q0 13 8.5 22.5t20.5 9.5h9q13 0 21.5 -9.5t8.5 -22.5v-7q0 -17 -7 -32l-29 -63h-29l26 62q-12 1 -20.5 10t-8.5 23z" />
<glyph unicode="&#x3c;" horiz-adv-x="575" d="M90 298v28l397 176v-42l-331 -148l331 -156v-42z" />
<glyph unicode="=" horiz-adv-x="575" d="M90 219v41h397v-41h-397zM90 364v41h397v-41h-397z" />
<glyph unicode="&#x3e;" horiz-adv-x="572" d="M88 114v42l331 156l-331 148v42l397 -176v-28z" />
<glyph unicode="?" horiz-adv-x="441" d="M24 572l58 65q15 15 42 15h129q56 0 94 -37.5t38 -93.5v-69q0 -25 -17 -39l-181 -136v-70h-50v64q0 31 27 51l166 124v76q0 36 -22.5 59t-58.5 23h-127l-61 -64zM125 30v7q0 13 9.5 22.5t22.5 9.5h8q13 0 23 -9.5t10 -22.5v-7q0 -13 -10 -23t-23 -10h-8q-13 0 -22.5 10 t-9.5 23z" />
<glyph unicode="@" horiz-adv-x="642" d="M25 148q0 138 89 227.5t223 89.5q121 0 200.5 -72.5t79.5 -187.5q0 -93 -50.5 -153.5t-123.5 -60.5q-59 0 -74 50q-40 -41 -83 -41q-52 0 -82 37.5t-30 102.5q0 84 46 139.5t115 55.5q43 0 113 -26l-28 -185q-6 -40 -6 -55q0 -19 7 -28t29 -9q52 0 86.5 48t34.5 120 q0 99 -66 160.5t-168 61.5q-116 0 -191 -79t-75 -191t75 -180t192 -68h210v-40h-210q-140 0 -226.5 75t-86.5 209zM229 146q0 -50 19.5 -76.5t54.5 -26.5q28 0 59 31l30 209q-25 11 -46 11q-50 0 -83.5 -41t-33.5 -107z" />
<glyph unicode="A" horiz-adv-x="559" d="M12 0l237 644h61l237 -644h-58l-59 164h-301l-59 -164h-58zM146 211h267l-134 373z" />
<glyph unicode="B" horiz-adv-x="538" d="M69 0v644h270q56 0 94 -37.5t38 -93.5v-92q0 -22 -17 -39l-38 -39q33 -16 52.5 -47t19.5 -70v-114q0 -22 -17 -39l-55 -57q-15 -16 -43 -16h-304zM124 48h252l57 59v120q0 36 -22.5 59t-58.5 23h-228v-261zM124 357h235l57 59v98q0 36 -22.5 59t-58.5 23h-211v-239z" />
<glyph unicode="C" horiz-adv-x="516" d="M69 123v417q0 22 17 39l55 57q15 16 43 16h148q56 0 95 -42l55 -59l-39 -30l-56 58q-24 25 -57 25h-149l-57 -59v-423q0 -36 22.5 -59t58.5 -23h167l82 82l37 -27l-79 -88q-15 -15 -42 -15h-169q-56 0 -94 37.5t-38 93.5z" />
<glyph unicode="D" horiz-adv-x="547" d="M69 0v644h288q56 0 94 -37.5t38 -93.5v-401q0 -22 -17 -39l-55 -57q-15 -16 -43 -16h-305zM124 48h253l57 59v407q0 36 -22.5 59t-58.5 23h-229v-548z" />
<glyph unicode="E" horiz-adv-x="470" d="M69 0v644h362v-48h-307v-248h256v-47h-256v-253h307v-48h-362z" />
<glyph unicode="F" horiz-adv-x="447" d="M69 0v644h352v-48h-297v-248h246v-47h-246v-301h-55z" />
<glyph unicode="G" horiz-adv-x="571" d="M69 123v417q0 22 17 39l55 57q15 16 43 16h168q56 0 95 -42l55 -59l-39 -30l-56 58q-24 25 -57 25h-169l-57 -59v-423q0 -36 22.5 -59t58.5 -23h191l57 59v186h-133v47h188v-228q0 -22 -17 -39l-55 -57q-15 -16 -43 -16h-192q-56 0 -94 37.5t-38 93.5z" />
<glyph unicode="H" horiz-adv-x="561" d="M69 0v644h54v-291h314v291h55v-644h-55v305h-314v-305h-54z" />
<glyph unicode="I" horiz-adv-x="369" d="M45 0v44h112v556h-112v44h279v-44h-112v-556h112v-44h-279z" />
<glyph unicode="J" horiz-adv-x="454" d="M19 93l37 28l57 -56q25 -25 58 -25h104l57 59v497h-235v48h290v-540q0 -22 -17 -39l-55 -57q-15 -16 -43 -16h-113q-49 0 -86 42z" />
<glyph unicode="K" horiz-adv-x="504" d="M69 0v644h55v-289h98q8 35 38 77l157 212h64l-169 -232q-36 -51 -36 -82q0 -34 35 -83l172 -247h-64l-157 226q-35 52 -41 81h-97v-307h-55z" />
<glyph unicode="L" horiz-adv-x="456" d="M88 0v644h55v-596h287v-48h-342z" />
<glyph unicode="M" horiz-adv-x="667" d="M69 0v644h75l189 -402l190 402h75v-644h-55v563l-182 -383h-55l-182 383v-563h-55z" />
<glyph unicode="N" horiz-adv-x="568" d="M69 0v644h67l308 -560v560h55v-644h-67l-308 555v-555h-55z" />
<glyph unicode="O" horiz-adv-x="577" d="M69 123v417q0 22 17 39l55 57q15 16 43 16h192q56 0 94 -37.5t38 -93.5v-417q0 -22 -17 -39l-55 -57q-15 -16 -43 -16h-192q-56 0 -94 37.5t-38 93.5zM124 122q0 -36 22.5 -59t58.5 -23h191l57 59v423q0 36 -22.5 59t-58.5 23h-191l-57 -59v-423z" />
<glyph unicode="P" horiz-adv-x="497" d="M69 0v644h262q56 0 94 -37.5t38 -93.5v-139q0 -22 -17 -39l-55 -57q-15 -16 -43 -16h-224v-262h-55zM124 310h227l57 59v145q0 36 -22.5 59t-58.5 23h-203v-286z" />
<glyph unicode="Q" horiz-adv-x="577" d="M69 122v418q0 23 17 40l55 57q15 15 43 15h192q56 0 94 -37.5t38 -93.5v-417q0 -22 -17 -39l-55 -57q-15 -16 -43 -16h-69l41 -92h-57l-41 92h-67q-57 0 -94 37t-37 93zM124 122q0 -35 22 -58.5t59 -23.5h55v48h55v-48h79l59 59v423q0 36 -22.5 59t-58.5 23h-190l-58 -58 v-424z" />
<glyph unicode="R" horiz-adv-x="500" d="M69 0v644h262q56 0 94 -37.5t38 -93.5v-129q0 -22 -17 -39l-55 -57q-15 -16 -43 -16h-26l158 -272h-59l-159 272h-138v-272h-55zM124 320h227l57 59v135q0 36 -22.5 59t-58.5 23h-203v-276z" />
<glyph unicode="S" horiz-adv-x="518" d="M38 93l37 28l57 -56q25 -25 58 -25h172l57 59v107q0 30 -15.5 51t-42.5 27l-207 45q-42 9 -69 45t-27 86v80q0 22 17 39l55 57q15 16 43 16h146q56 0 95 -42l55 -59l-39 -30l-56 58q-24 25 -57 25h-147l-57 -59v-89q0 -30 15.5 -51t42.5 -27l207 -45q42 -9 69 -45t27 -86 v-98q0 -22 -17 -39l-55 -57q-15 -16 -43 -16h-181q-48 0 -86 42z" />
<glyph unicode="T" horiz-adv-x="449" d="M15 596v48h419v-48h-182v-596h-55v596h-182z" />
<glyph unicode="U" horiz-adv-x="561" d="M69 123v521h55v-522q0 -36 22.5 -59t58.5 -23h175l57 59v545h55v-540q0 -22 -17 -39l-55 -57q-15 -16 -43 -16h-176q-56 0 -94 37.5t-38 93.5z" />
<glyph unicode="V" horiz-adv-x="519" d="M12 644h58l189 -580l190 580h58l-217 -644h-61z" />
<glyph unicode="W" horiz-adv-x="759" d="M19 644h58l132 -554l137 554h67l137 -554l132 554h58l-157 -644h-66l-138 561l-137 -561h-66z" />
<glyph unicode="X" horiz-adv-x="486" d="M12 0l145 287q15 31 39 42q-23 17 -33 39l-137 276h60l126 -253q11 -21 31 -36q20 15 31 36l126 253h60l-137 -276q-13 -24 -34 -40q26 -11 40 -41l145 -287h-60l-134 264q-14 26 -37 36q-23 -10 -37 -36l-134 -264h-60z" />
<glyph unicode="Y" horiz-adv-x="480" d="M9 644h60l127 -270q14 -31 44 -31t44 31l127 270h60l-140 -298q-22 -47 -64 -54v-292h-54v292q-42 7 -64 54z" />
<glyph unicode="Z" horiz-adv-x="467" d="M34 0v85q0 21 14 40l321 413q9 13 9 28v30h-320v48h375v-84q0 -27 -12 -42l-323 -411q-9 -12 -9 -28v-31h344v-48h-399z" />
<glyph unicode="[" horiz-adv-x="240" d="M90 -55v726h138v-30h-89v-666h89v-30h-138z" />
<glyph unicode="\" horiz-adv-x="306" d="M0 652h34l272 -652h-34z" />
<glyph unicode="]" horiz-adv-x="240" d="M12 -25h89v666h-89v30h138v-726h-138v30z" />
<glyph unicode="^" horiz-adv-x="555" d="M82 283l181 357h28l182 -357h-37l-159 311l-157 -311h-38z" />
<glyph unicode="_" horiz-adv-x="416" d="M9 -62h397v-33h-397v33z" />
<glyph unicode="`" horiz-adv-x="279" d="M38 581v58l169 -72v-34z" />
<glyph unicode="a" horiz-adv-x="489" d="M46 121v53q0 29 18 41l47 33q23 16 51 16h203v79q0 36 -23.5 59t-60.5 23h-142l-46 -49l-32 22l55 60q13 13 36 13h134q56 0 93.5 -37t37.5 -92v-229q0 -53 6 -113h-38l-15 67l-69 -61q-14 -14 -34 -14h-90q-56 0 -93.5 37t-37.5 92zM98 120q0 -36 23.5 -59t60.5 -23h93 l90 78v104h-205l-62 -43v-57z" />
<glyph unicode="b" horiz-adv-x="500" d="M66 0q6 60 6 113v531h52v-173h188q56 0 93.5 -37t37.5 -92v-244q0 -23 -18 -41l-47 -47q-18 -18 -45 -18h-111q-20 0 -34 14l-69 61l-15 -67h-38zM124 116l90 -78h120l57 58v247q0 36 -23.5 59t-60.5 23h-183v-309z" />
<glyph unicode="c" horiz-adv-x="466" d="M57 121v244q0 23 18 41l47 47q18 18 45 18h148q45 0 84 -42l25 -27l-32 -24l-20 20q-27 27 -54 27h-152l-57 -58v-247q0 -36 23.5 -59t60.5 -23h156l46 49l32 -22l-55 -60q-13 -13 -36 -13h-148q-56 0 -93.5 37t-37.5 92z" />
<glyph unicode="d" horiz-adv-x="500" d="M57 121v244q0 23 18 41l47 47q18 18 45 18h209v173h52v-531q0 -53 6 -113h-38l-15 67l-69 -61q-14 -14 -34 -14h-90q-56 0 -93.5 37t-37.5 92zM109 120q0 -36 23.5 -59t60.5 -23h93l90 78v309h-210l-57 -58v-247z" />
<glyph unicode="e" horiz-adv-x="484" d="M56 121v244q0 23 18 41l47 47q18 18 45 18h131q56 0 93.5 -37t37.5 -92v-128h-320v-94q0 -36 23.5 -59t60.5 -23h150l46 49l32 -22l-55 -60q-13 -13 -36 -13h-142q-56 0 -93.5 37t-37.5 92zM108 257h268v86q0 36 -23.5 59t-60.5 23h-127l-57 -58v-110z" />
<glyph unicode="f" horiz-adv-x="290" d="M7 420v43h83v51q0 56 37.5 93t93.5 37h62v-46h-57q-37 0 -60.5 -23t-23.5 -60v-52h126v-43h-126v-420h-52v420h-83z" />
<glyph unicode="g" horiz-adv-x="500" d="M57 121v244q0 23 18 41l47 47q18 18 45 18h111q20 0 34 -14l69 -61l15 67h38q-6 -60 -6 -113v-425q0 -23 -18 -41l-47 -47q-18 -18 -45 -18h-145q-45 0 -84 42l-25 27l34 22l18 -18q27 -27 54 -27h149l57 58v69h-188q-56 0 -93.5 37t-37.5 92zM109 120q0 -36 23.5 -59 t60.5 -23h183v309l-90 78h-120l-57 -58v-247z" />
<glyph unicode="h" horiz-adv-x="503" d="M66 0v644h52v-244l64 57q14 14 34 14h90q56 0 93.5 -37t37.5 -92v-342h-52v343q0 36 -23.5 59t-60.5 23h-93l-90 -78v-347h-52z" />
<glyph unicode="i" horiz-adv-x="288" d="M36 0v43h88v377h-77v43h129v-420h88v-43h-228zM115 614v7q0 13 9.5 22t21.5 9h8q12 0 21.5 -9t9.5 -22v-7q0 -13 -9.5 -22.5t-21.5 -9.5h-8q-12 0 -21.5 9.5t-9.5 22.5z" />
<glyph unicode="j" horiz-adv-x="200" d="M-12 -155l89 98v520h52v-516q0 -24 -19 -41l-92 -91zM68 614v7q0 13 9.5 22t21.5 9h8q12 0 21.5 -9t9.5 -22v-7q0 -13 -9.5 -22.5t-21.5 -9.5h-8q-12 0 -21.5 9.5t-9.5 22.5z" />
<glyph unicode="k" horiz-adv-x="430" d="M66 0v644h52v-370h98q7 29 30 61l96 128h62l-112 -150q-26 -36 -26 -63t25 -62l135 -188h-62l-117 164q-24 32 -31 64h-98v-228h-52z" />
<glyph unicode="l" horiz-adv-x="189" d="M70 96v548h52v-531q0 -65 6 -113h-52q-6 42 -6 96z" />
<glyph unicode="m" horiz-adv-x="768" d="M66 464h38l15 -68l69 61q14 14 34 14h60q42 0 74 -21.5t47 -57.5l74 65q14 14 34 14h60q56 0 93.5 -37t37.5 -92v-342h-52v343q0 36 -23.5 59t-60.5 23h-63l-90 -78v-347h-52v343q0 36 -23.5 59t-60.5 23h-63l-90 -78v-347h-52v351q0 53 -6 113z" />
<glyph unicode="n" horiz-adv-x="507" d="M66 464h38l15 -68l69 61q14 14 34 14h90q56 0 93.5 -37t37.5 -92v-342h-52v343q0 36 -23.5 59t-60.5 23h-93l-90 -78v-347h-52v351q0 53 -6 113z" />
<glyph unicode="o" horiz-adv-x="484" d="M56 121v244q0 23 18 41l47 47q18 18 45 18h131q56 0 93.5 -37t37.5 -92v-244q0 -23 -18 -41l-47 -47q-18 -18 -45 -18h-131q-56 0 -93.5 37t-37.5 92zM108 120q0 -36 23.5 -59t60.5 -23h127l57 58v247q0 36 -23.5 59t-60.5 23h-127l-57 -58v-247z" />
<glyph unicode="p" horiz-adv-x="500" d="M66 463h38l15 -67l69 61q14 14 34 14h90q56 0 93.5 -37t37.5 -92v-244q0 -23 -18 -41l-47 -47q-18 -18 -45 -18h-209v-173h-52v531q0 53 -6 113zM124 38h210l57 58v247q0 36 -23.5 59t-60.5 23h-93l-90 -78v-309z" />
<glyph unicode="q" horiz-adv-x="500" d="M57 121v244q0 23 18 41l47 47q18 18 45 18h111q20 0 34 -14l69 -61l15 67h38q-6 -60 -6 -113v-531h-52v173h-188q-56 0 -93.5 37t-37.5 92zM109 120q0 -36 23.5 -59t60.5 -23h183v309l-90 78h-120l-57 -58v-247z" />
<glyph unicode="r" horiz-adv-x="317" d="M66 464h38l15 -78l76 68q20 17 42 17h67v-54h-89l-91 -80v-337h-52v351q0 53 -6 113z" />
<glyph unicode="s" horiz-adv-x="433" d="M46 61l32 24l20 -20q27 -27 54 -27h127l57 58v34q0 55 -48 66l-167 37q-33 7 -54 33t-21 58v41q0 23 18 41l47 47q18 18 45 18h116q45 0 84 -42l25 -27l-32 -24l-20 20q-27 27 -54 27h-120l-57 -58v-22q0 -55 48 -66l167 -37q33 -7 54 -33t21 -58v-53q0 -23 -18 -41 l-47 -47q-18 -18 -45 -18h-123q-45 0 -84 42z" />
<glyph unicode="t" horiz-adv-x="278" d="M7 420v43h84v146l52 11v-157h117v-43h-117v-291q0 -37 23.5 -60t60.5 -23h30v-46h-35q-56 0 -93.5 37t-37.5 93v290h-84z" />
<glyph unicode="u" horiz-adv-x="500" d="M66 121v342h52v-343q0 -36 23.5 -59t60.5 -23h93l90 78v347h52v-350q0 -53 6 -113h-38l-15 67l-69 -61q-14 -14 -34 -14h-90q-56 0 -93.5 37t-37.5 92z" />
<glyph unicode="v" horiz-adv-x="413" d="M12 463h55l139 -403l140 403h55l-165 -463h-59z" />
<glyph unicode="w" horiz-adv-x="667" d="M19 463h55l111 -397l116 397h62l118 -397l112 397h55l-134 -463h-65l-117 383l-114 -383h-65z" />
<glyph unicode="x" horiz-adv-x="416" d="M12 0l115 198q19 32 38 40q-14 12 -32 41l-111 184h55l100 -161q14 -23 31 -36q17 13 31 36l100 161h55l-111 -184q-18 -29 -33 -41q20 -8 39 -40l115 -198h-55l-104 175q-16 27 -37 36q-21 -9 -37 -36l-104 -175h-55z" />
<glyph unicode="y" horiz-adv-x="408" d="M9 463h55l147 -387l133 387h55l-195 -556q-7 -21 -31 -34l-112 -60l-19 40l116 66l30 88z" />
<glyph unicode="z" horiz-adv-x="419" d="M32 0v67q0 28 18 46l266 260q8 8 8 25v22h-281v43h331v-67q0 -28 -18 -46l-266 -260q-8 -8 -8 -25v-22h305v-43h-355z" />
<glyph unicode="{" horiz-adv-x="294" d="M58 299v18q28 6 37.5 27.5t9.5 60.5v146q0 122 129 120v-22q-43 -12 -61.5 -35t-18.5 -62v-131q0 -96 -44 -112v-2q44 -16 44 -112v-131q0 -39 18.5 -62t61.5 -35v-22q-129 -2 -129 120v146q0 39 -9.5 60.5t-37.5 27.5z" />
<glyph unicode="|" horiz-adv-x="211" d="M81 -166v858h49v-858h-49z" />
<glyph unicode="}" horiz-adv-x="294" d="M60 -33q43 12 61.5 35t18.5 62v131q0 96 44 112v2q-44 16 -44 112v131q0 39 -18.5 62t-61.5 35v22q129 2 129 -120v-146q0 -39 9.5 -60.5t37.5 -27.5v-18q-28 -6 -37.5 -27.5t-9.5 -60.5v-146q0 -122 -129 -120v22z" />
<glyph unicode="~" horiz-adv-x="567" d="M86 211q39 71 98 71q32 0 102 -30q9 -4 24.5 -11t22 -9.5t16.5 -6t18 -4.5t17 -1q48 0 82 51l14 -24q-45 -69 -101 -69q-30 0 -105 33q-7 3 -20.5 9.5t-22 10t-21 7t-23.5 3.5q-49 0 -88 -51z" />
<glyph unicode="&#xa1;" horiz-adv-x="155" d="M40 421v7q0 13 10 23t23 10h8q13 0 22.5 -10t9.5 -23v-7q0 -13 -9.5 -22.5t-22.5 -9.5h-8q-13 0 -23 9.5t-10 22.5zM50 -15l8 266h38l9 -266v-173h-55v173z" />
<glyph unicode="&#xa2;" horiz-adv-x="466" d="M57 129v224q0 23 18 41l47 47q18 18 45 18h62v80h39v-80h47q45 0 84 -42l25 -27l-32 -24l-20 20q-27 27 -54 27h-152l-57 -58v-227q0 -36 23.5 -59t60.5 -23h156l46 49l32 -22l-55 -60q-13 -13 -36 -13h-68v-89h-39v89h-41q-56 0 -93.5 37t-37.5 92z" />
<glyph unicode="&#xa3;" horiz-adv-x="467" d="M4 285v39h56v216q0 22 17 39l55 57q15 16 43 16h113q48 0 86 -42l54 -59l-37 -28l-57 56q-25 25 -58 25h-104l-57 -59v-221h192v-39h-192v-237h314v-48h-405v34l36 36v215h-56z" />
<glyph unicode="&#xa4;" horiz-adv-x="509" d="M46 336q0 69 40 125l-36 36l43 44l37 -36q52 41 128 41q61 0 121 -41l36 36l44 -44l-36 -36q40 -57 40 -129q0 -61 -40 -119l36 -35l-44 -44l-36 36q-58 -41 -129 -41q-63 0 -120 41l-37 -36l-43 44l36 35q-40 58 -40 123zM107 336q0 -60 43 -104t103 -44q62 0 105 43.5 t43 107.5q0 59 -42 103t-101 44q-65 0 -108 -42.5t-43 -107.5z" />
<glyph unicode="&#xa5;" horiz-adv-x="468" d="M3 644h60l127 -270q14 -31 44 -31t44 31l127 270h60l-140 -298q-12 -26 -33 -41h133v-39h-164v-79h164v-39h-164v-148h-54v148h-164v39h164v79h-164v39h132q-19 14 -32 41z" />
<glyph unicode="&#xa6;" horiz-adv-x="211" d="M81 -166v368h49v-368h-49zM81 325v368h49v-368h-49z" />
<glyph unicode="&#xa7;" horiz-adv-x="434" d="M55 243v31q0 23 18 41l95 95l-44 37q-31 25 -31 58v41q0 23 18 41l47 47q18 18 45 18h64q45 0 84 -42l25 -27l-32 -24l-20 20q-27 27 -54 27h-68l-57 -58v-22q0 -23 9 -36t32 -31l165 -131q17 -13 22 -24t5 -33v-31q0 -23 -18 -41l-96 -96l45 -36q31 -25 31 -58v-41 q0 -23 -18 -41l-47 -47q-18 -18 -45 -18h-64q-45 0 -84 42l-25 27l32 24l20 -20q27 -27 54 -27h68l57 58v22q0 23 -9 36t-32 31l-165 131q-17 13 -22 24t-5 33zM107 254q0 -12 7 -23t13.5 -16.5t23.5 -19.5l74 -61l101 104v22q0 12 -7 23t-13.5 16.5t-23.5 19.5l-75 60 l-100 -103v-22z" />
<glyph unicode="&#xa8;" horiz-adv-x="346" d="M51 601v9q0 13 10 23t22 10h10q12 0 22.5 -10t10.5 -23v-9q0 -13 -10.5 -22.5t-22.5 -9.5h-10q-12 0 -22 9.5t-10 22.5zM219 601v9q0 13 10 23t22 10h10q12 0 22.5 -10t10.5 -23v-9q0 -13 -10.5 -22.5t-22.5 -9.5h-10q-12 0 -22 9.5t-10 22.5z" />
<glyph unicode="&#xa9;" horiz-adv-x="695" d="M25 323q0 133 94.5 228t228.5 95q133 0 227.5 -95t94.5 -228q0 -134 -94.5 -228.5t-227.5 -94.5q-134 0 -228.5 94.5t-94.5 228.5zM56 323q0 -120 85.5 -206t206.5 -86q120 0 206 86t86 206t-86 206t-206 86q-121 0 -206.5 -86t-85.5 -206zM225 195v255q0 16 12 28l32 32 q10 10 26 10h84q35 0 58 -26l33 -37l-26 -20l-34 36q-12 12 -32 12h-82l-34 -33v-258l34 -35h106l47 46l26 -18l-48 -53q-8 -10 -25 -10h-107q-15 0 -26 11l-32 33q-12 14 -12 27z" />
<glyph unicode="&#xaa;" horiz-adv-x="290" d="M28 434v38q0 18 8 23l35 24q9 6 26 6h122v45q0 20 -13 34t-33 14h-84l-29 -29l-24 17l36 37q7 9 25 9h78q35 0 58 -23t23 -59v-134q0 -40 4 -73h-28l-9 42l-39 -38q-9 -9 -22 -9h-52q-35 0 -58.5 21.5t-23.5 54.5zM65 433q0 -18 13.5 -29.5t34.5 -11.5h56l50 48v58h-120 l-34 -24v-41z" />
<glyph unicode="&#xab;" horiz-adv-x="410" d="M49 286v12l157 157h42l-158 -159v-8l161 -162h-42zM159 286v12l157 157h42l-158 -159v-8l161 -162h-42z" />
<glyph unicode="&#xac;" d="M91 372q0 50 2 79t10 55t20 38t37.5 21t56 11t81.5 2t81.5 -2t56 -11t37 -21t20 -38t10 -55t1.5 -79t-1.5 -79t-10 -55.5t-20 -38t-37 -21t-56 -11.5t-81.5 -2t-81.5 2t-56 11t-37.5 21t-20 38t-10 55.5t-2 79.5zM148 323l32 -56l105 82l-19 -131h65l-20 131l105 -82 l32 56l-123 50l123 49l-32 56l-105 -82l19 131h-64l19 -131l-105 81l-32 -56l123 -48z" />
<glyph unicode="&#xad;" horiz-adv-x="203" d="M9 272v41h185v-41h-185z" />
<glyph unicode="&#xae;" horiz-adv-x="695" d="M25 323q0 133 94.5 228t228.5 95q133 0 227.5 -95t94.5 -228q0 -134 -94.5 -228.5t-227.5 -94.5q-134 0 -228.5 94.5t-94.5 228.5zM56 323q0 -120 85.5 -206t206.5 -86q120 0 206 86t86 206t-86 206t-206 86q-121 0 -206.5 -86t-85.5 -206zM237 124v396h154 q36 0 59.5 -23t23.5 -59v-73q0 -15 -10 -27l-31 -33q-12 -10 -26 -10h-29l106 -149v-22h-32l-122 171h-55v-171h-38zM275 329h129l32 35v75q0 20 -13 33t-34 13h-114v-156z" />
<glyph unicode="&#xaf;" horiz-adv-x="443" d="M79 595v43h285v-43h-285z" />
<glyph unicode="&#xb0;" horiz-adv-x="369" d="M60 535q0 51 36 87.5t88 36.5t88.5 -36.5t36.5 -87.5q0 -52 -36.5 -88.5t-88.5 -36.5t-88 36.5t-36 88.5zM90 535q0 -40 27.5 -67.5t66.5 -27.5q40 0 67.5 27.5t27.5 67.5q0 39 -27.5 66.5t-67.5 27.5q-39 0 -66.5 -27.5t-27.5 -66.5z" />
<glyph unicode="&#xb1;" horiz-adv-x="575" d="M90 113v41h397v-41h-397zM90 334v41h178v135h41v-135h178v-41h-178v-114h-41v114h-178z" />
<glyph unicode="&#xb2;" horiz-adv-x="303" d="M32 589l46 52q11 11 24 11h82q34 0 55.5 -23t21.5 -57v-66q0 -18 -8 -24l-187 -142v-57h195v-27h-227v78q0 18 16 30l181 137v71q0 22 -14.5 36t-34.5 14h-80l-48 -50z" />
<glyph unicode="&#xb3;" horiz-adv-x="314" d="M32 312l23 18l34 -35q15 -17 36 -17h81l35 39v84l-35 37h-63v30h57l36 35v69q0 23 -14 37.5t-37 14.5h-74l-50 -52l-22 18l47 52q10 10 26 10h76q33 0 55 -23t22 -57v-63q0 -19 -9 -28l-27 -26l32 -32q11 -11 11 -24v-80q0 -16 -11 -25l-33 -33q-10 -10 -25 -10h-79 q-35 0 -57 24z" />
<glyph unicode="&#xb4;" horiz-adv-x="279" d="M72 532v35l169 72v-58z" />
<glyph unicode="&#xb5;" horiz-adv-x="500" d="M66 -154v617h52v-343q0 -36 23.5 -59t60.5 -23h93l90 78v347h52v-350q0 -53 6 -113h-38l-15 67l-69 -61q-14 -14 -34 -14h-90q-48 0 -82 26l11 -172h-60z" />
<glyph unicode="&#xb6;" horiz-adv-x="452" d="M44 495q0 71 43 111t124 40h181v-788h-31v757h-121v-757h-31v498h-36q-56 0 -92.5 39t-36.5 100z" />
<glyph unicode="&#xb7;" horiz-adv-x="173" d="M50 235v7q0 13 9.5 22.5t22.5 9.5h8q13 0 23 -9.5t10 -22.5v-7q0 -13 -10 -23t-23 -10h-8q-13 0 -22.5 10t-9.5 23z" />
<glyph unicode="&#xb8;" horiz-adv-x="230" d="M73 -149l28 91h55l-47 -91h-36z" />
<glyph unicode="&#xb9;" horiz-adv-x="301" d="M64 619l49 22q15 7 39 7h17v-365h63v-27h-158v27h66v339l-65 -28z" />
<glyph unicode="&#xba;" horiz-adv-x="301" d="M36 439v145q0 16 12 28l29 28q12 12 28 12h78q35 0 58 -23t23 -60v-144q0 -18 -10 -28l-30 -29q-11 -11 -28 -11h-80q-35 0 -57.5 23t-22.5 59zM72 437q0 -18 14 -32t34 -14h76l32 33v145q0 21 -13.5 34.5t-34.5 13.5h-76l-32 -32v-148z" />
<glyph unicode="&#xbb;" horiz-adv-x="410" d="M49 126l161 162v8l-158 159h42l157 -157v-12l-160 -160h-42zM159 126l161 162v8l-158 159h42l157 -157v-12l-160 -160h-42z" />
<glyph unicode="&#xbc;" horiz-adv-x="680" d="M42 619l49 22q15 7 39 7h17v-365h63v-27h-158v27h66v339l-65 -28zM156 0l354 652h28l-354 -652h-28zM372 91v26l188 275h34v-272h44v-29h-44v-91h-30v91h-192zM405 120h159v233z" />
<glyph unicode="&#xbd;" horiz-adv-x="720" d="M42 619l49 22q15 7 39 7h17v-365h63v-27h-158v27h66v339l-65 -28zM156 0l354 652h28l-354 -652h-28zM449 333l46 52q11 11 24 11h82q34 0 55.5 -23t21.5 -57v-66q0 -18 -8 -24l-187 -142v-57h195v-27h-227v78q0 18 16 30l181 137v71q0 22 -14 36t-35 14h-80l-48 -50z" />
<glyph unicode="&#xbe;" horiz-adv-x="740" d="M32 312l23 18l34 -35q15 -17 36 -17h81l35 39v84l-35 37h-63v30h57l36 35v69q0 23 -14 37.5t-37 14.5h-74l-50 -52l-22 18l47 52q10 10 26 10h76q33 0 55 -23t22 -57v-63q0 -19 -9 -28l-27 -26l32 -32q11 -11 11 -24v-80q0 -16 -11 -25l-33 -33q-10 -10 -25 -10h-79 q-35 0 -57 24zM216 0l354 652h28l-354 -652h-28zM432 91v26l188 275h34v-272h44v-29h-44v-91h-30v91h-192zM465 120h159v233z" />
<glyph unicode="&#xbf;" horiz-adv-x="503" d="M70 6q0 25 17 39l181 136v70h50v-64q0 -31 -27 -51l-166 -124v-76q0 -36 22.5 -59t58.5 -23h127l61 64l37 -32l-58 -65q-15 -15 -42 -15h-129q-56 0 -94 37.5t-38 93.5v69zM257 421v7q0 13 10 23t23 10h8q13 0 22.5 -10t9.5 -23v-7q0 -13 -9.5 -22.5t-22.5 -9.5h-8 q-13 0 -23 9.5t-10 22.5z" />
<glyph unicode="&#xc0;" horiz-adv-x="559" d="M12 0l237 644h61l237 -644h-58l-59 164h-301l-59 -164h-58zM146 211h267l-134 373zM195 744v58l169 -72v-34z" />
<glyph unicode="&#xc1;" horiz-adv-x="559" d="M12 0l237 644h61l237 -644h-58l-59 164h-301l-59 -164h-58zM146 211h267l-134 373zM195 695v35l169 72v-58z" />
<glyph unicode="&#xc2;" horiz-adv-x="559" d="M12 0l237 644h61l237 -644h-58l-59 164h-301l-59 -164h-58zM146 211h267l-134 373zM170 692l87 114h45l86 -114h-48l-61 77l-62 -77h-47z" />
<glyph unicode="&#xc3;" horiz-adv-x="559" d="M12 0l237 644h61l237 -644h-58l-59 164h-301l-59 -164h-58zM146 211h267l-134 373zM146 720q33 60 79 60q21 0 59 -22q37 -21 50 -21q25 0 49 40l30 -22q-33 -60 -81 -60q-24 0 -52 17q-5 3 -16 9.5t-15.5 9.5t-12 5.5t-13.5 2.5q-23 0 -47 -40z" />
<glyph unicode="&#xc4;" horiz-adv-x="559" d="M12 0l237 644h61l237 -644h-58l-59 164h-301l-59 -164h-58zM146 211h267l-134 373zM158 730v9q0 13 10 23t22 10h10q12 0 22.5 -10t10.5 -23v-9q0 -13 -10.5 -22.5t-22.5 -9.5h-10q-12 0 -22 9.5t-10 22.5zM326 730v9q0 13 10 23t22 10h10q12 0 22.5 -10t10.5 -23v-9 q0 -13 -10.5 -22.5t-22.5 -9.5h-10q-12 0 -22 9.5t-10 22.5z" />
<glyph unicode="&#xc5;" horiz-adv-x="559" d="M12 0l230 626q-24 11 -38.5 33.5t-14.5 49.5q0 37 26.5 63.5t63.5 26.5t63.5 -26.5t26.5 -63.5q0 -27 -14.5 -49t-38.5 -33l231 -627h-58l-59 164h-301l-59 -164h-58zM146 211h267l-134 373zM221 709q0 -25 16.5 -41.5t41.5 -16.5t42 16.5t17 41.5t-17 42t-42 17 t-41.5 -17t-16.5 -42z" />
<glyph unicode="&#xc6;" horiz-adv-x="736" d="M14 0l197 644h486v-48h-287v-248h236v-47h-236v-253h287v-48h-342v253h-205l-74 -253h-62zM165 301h190v295h-101z" />
<glyph unicode="&#xc7;" horiz-adv-x="516" d="M69 123v417q0 22 17 39l55 57q15 16 43 16h148q56 0 95 -42l55 -59l-39 -30l-56 58q-24 25 -57 25h-149l-57 -59v-423q0 -36 22.5 -59t58.5 -23h167l82 82l37 -27l-79 -88q-15 -15 -42 -15h-169q-56 0 -94 37.5t-38 93.5zM231 -149l28 91h55l-47 -91h-36z" />
<glyph unicode="&#xc8;" horiz-adv-x="470" d="M69 0v644h362v-48h-307v-248h256v-47h-256v-253h307v-48h-362zM166 744v58l169 -72v-34z" />
<glyph unicode="&#xc9;" horiz-adv-x="470" d="M69 0v644h362v-48h-307v-248h256v-47h-256v-253h307v-48h-362zM166 695v35l169 72v-58z" />
<glyph unicode="&#xca;" horiz-adv-x="470" d="M69 0v644h362v-48h-307v-248h256v-47h-256v-253h307v-48h-362zM141 692l87 114h45l86 -114h-48l-61 77l-62 -77h-47z" />
<glyph unicode="&#xcb;" horiz-adv-x="470" d="M69 0v644h362v-48h-307v-248h256v-47h-256v-253h307v-48h-362zM129 730v9q0 13 10 23t22 10h10q12 0 22.5 -10t10.5 -23v-9q0 -13 -10.5 -22.5t-22.5 -9.5h-10q-12 0 -22 9.5t-10 22.5zM297 730v9q0 13 10 23t22 10h10q12 0 22.5 -10t10.5 -23v-9q0 -13 -10.5 -22.5 t-22.5 -9.5h-10q-12 0 -22 9.5t-10 22.5z" />
<glyph unicode="&#xcc;" horiz-adv-x="369" d="M45 0v44h112v556h-112v44h279v-44h-112v-556h112v-44h-279zM100 744v58l169 -72v-34z" />
<glyph unicode="&#xcd;" horiz-adv-x="369" d="M45 0v44h112v556h-112v44h279v-44h-112v-556h112v-44h-279zM100 695v35l169 72v-58z" />
<glyph unicode="&#xce;" horiz-adv-x="369" d="M45 0v44h112v556h-112v44h279v-44h-112v-556h112v-44h-279zM75 692l87 114h45l86 -114h-48l-61 77l-62 -77h-47z" />
<glyph unicode="&#xcf;" horiz-adv-x="369" d="M45 0v44h112v556h-112v44h279v-44h-112v-556h112v-44h-279zM63 730v9q0 13 10 23t22 10h10q12 0 22.5 -10t10.5 -23v-9q0 -13 -10.5 -22.5t-22.5 -9.5h-10q-12 0 -22 9.5t-10 22.5zM231 730v9q0 13 10 23t22 10h10q12 0 22.5 -10t10.5 -23v-9q0 -13 -10.5 -22.5 t-22.5 -9.5h-10q-12 0 -22 9.5t-10 22.5z" />
<glyph unicode="&#xd0;" horiz-adv-x="542" d="M4 314v46h60v284h288q56 0 94 -37.5t38 -93.5v-401q0 -22 -17 -39l-55 -57q-15 -16 -43 -16h-305v314h-60zM119 48h253l57 59v407q0 36 -22.5 59t-58.5 23h-229v-236h116v-46h-116v-266z" />
<glyph unicode="&#xd1;" horiz-adv-x="568" d="M69 0v644h67l308 -560v560h55v-644h-67l-308 555v-555h-55zM151 720q33 60 79 60q20 0 59 -22q37 -21 50 -21q25 0 49 40l30 -22q-33 -60 -81 -60q-24 0 -52 17q-5 3 -16 9.5t-15.5 9.5t-12 5.5t-13.5 2.5q-23 0 -47 -40z" />
<glyph unicode="&#xd2;" horiz-adv-x="577" d="M69 123v417q0 22 17 39l55 57q15 16 43 16h192q56 0 94 -37.5t38 -93.5v-417q0 -22 -17 -39l-55 -57q-15 -16 -43 -16h-192q-56 0 -94 37.5t-38 93.5zM124 122q0 -36 22.5 -59t58.5 -23h191l57 59v423q0 36 -22.5 59t-58.5 23h-191l-57 -59v-423zM204 744v58l169 -72v-34 z" />
<glyph unicode="&#xd3;" horiz-adv-x="577" d="M69 123v417q0 22 17 39l55 57q15 16 43 16h192q56 0 94 -37.5t38 -93.5v-417q0 -22 -17 -39l-55 -57q-15 -16 -43 -16h-192q-56 0 -94 37.5t-38 93.5zM124 122q0 -36 22.5 -59t58.5 -23h191l57 59v423q0 36 -22.5 59t-58.5 23h-191l-57 -59v-423zM204 695v35l169 72v-58z " />
<glyph unicode="&#xd4;" horiz-adv-x="577" d="M69 123v417q0 22 17 39l55 57q15 16 43 16h192q56 0 94 -37.5t38 -93.5v-417q0 -22 -17 -39l-55 -57q-15 -16 -43 -16h-192q-56 0 -94 37.5t-38 93.5zM124 122q0 -36 22.5 -59t58.5 -23h191l57 59v423q0 36 -22.5 59t-58.5 23h-191l-57 -59v-423zM179 692l87 114h45 l86 -114h-48l-61 77l-62 -77h-47z" />
<glyph unicode="&#xd5;" horiz-adv-x="577" d="M69 123v417q0 22 17 39l55 57q15 16 43 16h192q56 0 94 -37.5t38 -93.5v-417q0 -22 -17 -39l-55 -57q-15 -16 -43 -16h-192q-56 0 -94 37.5t-38 93.5zM124 122q0 -36 22.5 -59t58.5 -23h191l57 59v423q0 36 -22.5 59t-58.5 23h-191l-57 -59v-423zM155 720q33 60 79 60 q20 0 59 -22q37 -21 50 -21q25 0 49 40l30 -22q-33 -60 -81 -60q-24 0 -52 17q-5 3 -16 9.5t-15.5 9.5t-12 5.5t-13.5 2.5q-23 0 -47 -40z" />
<glyph unicode="&#xd6;" horiz-adv-x="577" d="M69 123v417q0 22 17 39l55 57q15 16 43 16h192q56 0 94 -37.5t38 -93.5v-417q0 -22 -17 -39l-55 -57q-15 -16 -43 -16h-192q-56 0 -94 37.5t-38 93.5zM124 122q0 -36 22.5 -59t58.5 -23h191l57 59v423q0 36 -22.5 59t-58.5 23h-191l-57 -59v-423zM167 730v9q0 13 10 23 t22 10h10q12 0 22.5 -10t10.5 -23v-9q0 -13 -10.5 -22.5t-22.5 -9.5h-10q-12 0 -22 9.5t-10 22.5zM335 730v9q0 13 10 23t22 10h10q12 0 22.5 -10t10.5 -23v-9q0 -13 -10.5 -22.5t-22.5 -9.5h-10q-12 0 -22 9.5t-10 22.5z" />
<glyph unicode="&#xd7;" horiz-adv-x="559" d="M90 150l162 161l-162 162l29 29l161 -162l162 162l29 -29l-162 -162l162 -161l-29 -29l-162 162l-161 -162z" />
<glyph unicode="&#xd8;" horiz-adv-x="554" d="M39 -29l45 71q-26 36 -26 81v417q0 22 17 39l55 57q15 16 43 16h192q50 0 86 -30l35 54h29v-9l-43 -68q25 -35 25 -78v-417q0 -22 -17 -39l-55 -57q-15 -16 -43 -16h-192q-48 0 -85 29l-37 -59h-29v9zM113 122q0 -17 4 -28l306 483q-24 27 -62 27h-191l-57 -59v-423z M133 65q22 -25 61 -25h191l57 59v423q0 13 -3 25z" />
<glyph unicode="&#xd9;" horiz-adv-x="561" d="M69 123v521h55v-522q0 -36 22.5 -59t58.5 -23h175l57 59v545h55v-540q0 -22 -17 -39l-55 -57q-15 -16 -43 -16h-176q-56 0 -94 37.5t-38 93.5zM196 744v58l169 -72v-34z" />
<glyph unicode="&#xda;" horiz-adv-x="561" d="M69 123v521h55v-522q0 -36 22.5 -59t58.5 -23h175l57 59v545h55v-540q0 -22 -17 -39l-55 -57q-15 -16 -43 -16h-176q-56 0 -94 37.5t-38 93.5zM196 695v35l169 72v-58z" />
<glyph unicode="&#xdb;" horiz-adv-x="561" d="M69 123v521h55v-522q0 -36 22.5 -59t58.5 -23h175l57 59v545h55v-540q0 -22 -17 -39l-55 -57q-15 -16 -43 -16h-176q-56 0 -94 37.5t-38 93.5zM171 692l87 114h45l86 -114h-48l-61 77l-62 -77h-47z" />
<glyph unicode="&#xdc;" horiz-adv-x="561" d="M69 123v521h55v-522q0 -36 22.5 -59t58.5 -23h175l57 59v545h55v-540q0 -22 -17 -39l-55 -57q-15 -16 -43 -16h-176q-56 0 -94 37.5t-38 93.5zM159 730v9q0 13 10 23t22 10h10q12 0 22.5 -10t10.5 -23v-9q0 -13 -10.5 -22.5t-22.5 -9.5h-10q-12 0 -22 9.5t-10 22.5z M327 730v9q0 13 10 23t22 10h10q12 0 22.5 -10t10.5 -23v-9q0 -13 -10.5 -22.5t-22.5 -9.5h-10q-12 0 -22 9.5t-10 22.5z" />
<glyph unicode="&#xdd;" horiz-adv-x="480" d="M9 644h60l127 -270q14 -31 44 -31t44 31l127 270h60l-140 -298q-22 -47 -64 -54v-292h-54v292q-42 7 -64 54zM156 695v35l169 72v-58z" />
<glyph unicode="&#xde;" horiz-adv-x="497" d="M69 0v644h55v-126h207q56 0 94 -37.5t38 -93.5v-139q0 -22 -17 -39l-55 -57q-15 -16 -43 -16h-224v-136h-55zM124 184h227l57 59v145q0 36 -22.5 59t-58.5 23h-203v-286z" />
<glyph unicode="&#xdf;" horiz-adv-x="516" d="M79 0v546q0 23 18 41l47 47q18 18 45 18h82q56 0 93.5 -37t37.5 -92v-59q0 -26 -17 -40l-35 -30q43 -11 70 -45t27 -80v-171q0 -23 -18 -41l-47 -47q-18 -18 -45 -18h-70v46h71l57 58v174q0 36 -23.5 59t-60.5 23h-40v36l79 70v66q0 36 -23.5 59t-60.5 23h-78l-57 -58 v-548h-52z" />
<glyph unicode="&#xe0;" horiz-adv-x="489" d="M46 121v53q0 29 18 41l47 33q23 16 51 16h203v79q0 36 -23.5 59t-60.5 23h-142l-46 -49l-32 22l55 60q13 13 36 13h134q56 0 93.5 -37t37.5 -92v-229q0 -53 6 -113h-38l-15 67l-69 -61q-14 -14 -34 -14h-90q-56 0 -93.5 37t-37.5 92zM98 120q0 -36 23.5 -59t60.5 -23h93 l90 78v104h-205l-62 -43v-57zM150 581v58l169 -72v-34z" />
<glyph unicode="&#xe1;" horiz-adv-x="489" d="M46 121v53q0 29 18 41l47 33q23 16 51 16h203v79q0 36 -23.5 59t-60.5 23h-142l-46 -49l-32 22l55 60q13 13 36 13h134q56 0 93.5 -37t37.5 -92v-229q0 -53 6 -113h-38l-15 67l-69 -61q-14 -14 -34 -14h-90q-56 0 -93.5 37t-37.5 92zM98 120q0 -36 23.5 -59t60.5 -23h93 l90 78v104h-205l-62 -43v-57zM150 532v35l169 72v-58z" />
<glyph unicode="&#xe2;" horiz-adv-x="489" d="M46 121v53q0 29 18 41l47 33q23 16 51 16h203v79q0 36 -23.5 59t-60.5 23h-142l-46 -49l-32 22l55 60q13 13 36 13h134q56 0 93.5 -37t37.5 -92v-229q0 -53 6 -113h-38l-15 67l-69 -61q-14 -14 -34 -14h-90q-56 0 -93.5 37t-37.5 92zM98 120q0 -36 23.5 -59t60.5 -23h93 l90 78v104h-205l-62 -43v-57zM125 529l87 114h45l86 -114h-48l-61 77l-62 -77h-47z" />
<glyph unicode="&#xe3;" horiz-adv-x="489" d="M46 121v53q0 29 18 41l47 33q23 16 51 16h203v79q0 36 -23.5 59t-60.5 23h-142l-46 -49l-32 22l55 60q13 13 36 13h134q56 0 93.5 -37t37.5 -92v-229q0 -53 6 -113h-38l-15 67l-69 -61q-14 -14 -34 -14h-90q-56 0 -93.5 37t-37.5 92zM98 120q0 -36 23.5 -59t60.5 -23h93 l90 78v104h-205l-62 -43v-57zM101 582q33 60 79 60q20 0 59 -22q37 -21 50 -21q25 0 49 40l30 -22q-33 -60 -81 -60q-24 0 -52 17q-5 3 -16 9.5t-15.5 9.5t-12 5.5t-13.5 2.5q-23 0 -47 -40z" />
<glyph unicode="&#xe4;" horiz-adv-x="489" d="M46 121v53q0 29 18 41l47 33q23 16 51 16h203v79q0 36 -23.5 59t-60.5 23h-142l-46 -49l-32 22l55 60q13 13 36 13h134q56 0 93.5 -37t37.5 -92v-229q0 -53 6 -113h-38l-15 67l-69 -61q-14 -14 -34 -14h-90q-56 0 -93.5 37t-37.5 92zM98 120q0 -36 23.5 -59t60.5 -23h93 l90 78v104h-205l-62 -43v-57zM113 597v9q0 13 10 23t22 10h10q12 0 22.5 -10t10.5 -23v-9q0 -13 -10.5 -22.5t-22.5 -9.5h-10q-12 0 -22 9.5t-10 22.5zM281 597v9q0 13 10 23t22 10h10q12 0 22.5 -10t10.5 -23v-9q0 -13 -10.5 -22.5t-22.5 -9.5h-10q-12 0 -22 9.5t-10 22.5z " />
<glyph unicode="&#xe5;" horiz-adv-x="489" d="M46 121v53q0 29 18 41l47 33q23 16 51 16h203v79q0 36 -23.5 59t-60.5 23h-142l-46 -49l-32 22l55 60q13 13 36 13h134q56 0 93.5 -37t37.5 -92v-229q0 -53 6 -113h-38l-15 67l-69 -61q-14 -14 -34 -14h-90q-56 0 -93.5 37t-37.5 92zM98 120q0 -36 23.5 -59t60.5 -23h93 l90 78v104h-205l-62 -43v-57zM144 601q0 37 26 63.5t64 26.5t64 -26.5t26 -63.5t-26 -63.5t-64 -26.5t-64 26.5t-26 63.5zM176 601q0 -25 16.5 -41.5t41.5 -16.5t42 16.5t17 41.5t-17 42t-42 17t-41.5 -17t-16.5 -42z" />
<glyph unicode="&#xe6;" horiz-adv-x="714" d="M46 121v53q0 29 18 41l47 33q23 16 51 16h164v81q0 34 -24 57t-60 23h-103l-46 -49l-32 22l55 60q13 13 36 13h95q70 0 108 -54l36 36q18 18 45 18h91q56 0 93.5 -37t37.5 -92v-128h-280v-94q0 -36 23.5 -59t60.5 -23h110l46 49l32 -22l-55 -60q-13 -13 -36 -13h-102 q-42 0 -75 21.5t-47 57.5l-73 -65q-14 -14 -34 -14h-51q-56 0 -93.5 37t-37.5 92zM98 120q0 -36 23.5 -59t60.5 -23h54l90 78v104h-166l-62 -43v-57zM378 257h228v86q0 36 -23.5 59t-60.5 23h-87l-57 -58v-110z" />
<glyph unicode="&#xe7;" horiz-adv-x="466" d="M57 121v244q0 23 18 41l47 47q18 18 45 18h148q45 0 84 -42l25 -27l-32 -24l-20 20q-27 27 -54 27h-152l-57 -58v-247q0 -36 23.5 -59t60.5 -23h156l46 49l32 -22l-55 -60q-13 -13 -36 -13h-148q-56 0 -93.5 37t-37.5 92zM195 -149l28 91h55l-47 -91h-36z" />
<glyph unicode="&#xe8;" horiz-adv-x="484" d="M56 121v244q0 23 18 41l47 47q18 18 45 18h131q56 0 93.5 -37t37.5 -92v-128h-320v-94q0 -36 23.5 -59t60.5 -23h150l46 49l32 -22l-55 -60q-13 -13 -36 -13h-142q-56 0 -93.5 37t-37.5 92zM108 257h268v86q0 36 -23.5 59t-60.5 23h-127l-57 -58v-110zM158 581v58 l169 -72v-34z" />
<glyph unicode="&#xe9;" horiz-adv-x="484" d="M56 121v244q0 23 18 41l47 47q18 18 45 18h131q56 0 93.5 -37t37.5 -92v-128h-320v-94q0 -36 23.5 -59t60.5 -23h150l46 49l32 -22l-55 -60q-13 -13 -36 -13h-142q-56 0 -93.5 37t-37.5 92zM108 257h268v86q0 36 -23.5 59t-60.5 23h-127l-57 -58v-110zM158 532v35l169 72 v-58z" />
<glyph unicode="&#xea;" horiz-adv-x="484" d="M56 121v244q0 23 18 41l47 47q18 18 45 18h131q56 0 93.5 -37t37.5 -92v-128h-320v-94q0 -36 23.5 -59t60.5 -23h150l46 49l32 -22l-55 -60q-13 -13 -36 -13h-142q-56 0 -93.5 37t-37.5 92zM108 257h268v86q0 36 -23.5 59t-60.5 23h-127l-57 -58v-110zM133 529l87 114h45 l86 -114h-48l-61 77l-62 -77h-47z" />
<glyph unicode="&#xeb;" horiz-adv-x="484" d="M56 121v244q0 23 18 41l47 47q18 18 45 18h131q56 0 93.5 -37t37.5 -92v-128h-320v-94q0 -36 23.5 -59t60.5 -23h150l46 49l32 -22l-55 -60q-13 -13 -36 -13h-142q-56 0 -93.5 37t-37.5 92zM108 257h268v86q0 36 -23.5 59t-60.5 23h-127l-57 -58v-110zM121 601v9 q0 13 10 23t22 10h10q12 0 22.5 -10t10.5 -23v-9q0 -13 -10.5 -22.5t-22.5 -9.5h-10q-12 0 -22 9.5t-10 22.5zM289 601v9q0 13 10 23t22 10h10q12 0 22.5 -10t10.5 -23v-9q0 -13 -10.5 -22.5t-22.5 -9.5h-10q-12 0 -22 9.5t-10 22.5z" />
<glyph unicode="&#xec;" horiz-adv-x="288" d="M36 0v43h88v377h-77v43h129v-420h88v-43h-228zM66 581v58l169 -72v-34z" />
<glyph unicode="&#xed;" horiz-adv-x="288" d="M36 0v43h88v377h-77v43h129v-420h88v-43h-228zM66 532v35l169 72v-58z" />
<glyph unicode="&#xee;" horiz-adv-x="288" d="M36 0v43h88v377h-77v43h129v-420h88v-43h-228zM41 529l87 114h45l86 -114h-48l-61 77l-62 -77h-47z" />
<glyph unicode="&#xef;" horiz-adv-x="284" d="M27 601v9q0 13 10 23t22 10h10q12 0 22.5 -10t10.5 -23v-9q0 -13 -10.5 -22.5t-22.5 -9.5h-10q-12 0 -22 9.5t-10 22.5zM34 0v43h88v377h-77v43h129v-420h88v-43h-228zM195 601v9q0 13 10 23t22 10h10q12 0 22.5 -10t10.5 -23v-9q0 -13 -10.5 -22.5t-22.5 -9.5h-10 q-12 0 -22 9.5t-10 22.5z" />
<glyph unicode="&#xf0;" horiz-adv-x="482" d="M57 121v236q0 23 18 41l47 47q18 18 45 18h149l-70 107l-62 -36l-17 26l62 37l-59 92h59l43 -66l68 41l17 -28l-68 -40l126 -192q10 -15 10 -70v-236q0 -23 -18 -41l-47 -47q-18 -18 -45 -18h-127q-56 0 -93.5 37t-37.5 92zM109 120q0 -36 23.5 -59t60.5 -23h123l57 58 v239q0 36 -23.5 59t-60.5 23h-123l-57 -58v-239z" />
<glyph unicode="&#xf1;" horiz-adv-x="507" d="M66 464h38l15 -68l69 61q14 14 34 14h90q56 0 93.5 -37t37.5 -92v-342h-52v343q0 36 -23.5 59t-60.5 23h-93l-90 -78v-347h-52v351q0 53 -6 113zM121 582q33 60 79 60q20 0 59 -22q37 -21 50 -21q25 0 49 40l30 -22q-33 -60 -81 -60q-24 0 -52 17q-5 3 -16 9.5t-15.5 9.5 t-12 5.5t-13.5 2.5q-23 0 -47 -40z" />
<glyph unicode="&#xf2;" horiz-adv-x="484" d="M56 121v244q0 23 18 41l47 47q18 18 45 18h131q56 0 93.5 -37t37.5 -92v-244q0 -23 -18 -41l-47 -47q-18 -18 -45 -18h-131q-56 0 -93.5 37t-37.5 92zM108 120q0 -36 23.5 -59t60.5 -23h127l57 58v247q0 36 -23.5 59t-60.5 23h-127l-57 -58v-247zM158 581v58l169 -72v-34 z" />
<glyph unicode="&#xf3;" horiz-adv-x="484" d="M56 121v244q0 23 18 41l47 47q18 18 45 18h131q56 0 93.5 -37t37.5 -92v-244q0 -23 -18 -41l-47 -47q-18 -18 -45 -18h-131q-56 0 -93.5 37t-37.5 92zM108 120q0 -36 23.5 -59t60.5 -23h127l57 58v247q0 36 -23.5 59t-60.5 23h-127l-57 -58v-247zM158 532v35l169 72v-58z " />
<glyph unicode="&#xf4;" horiz-adv-x="484" d="M56 121v244q0 23 18 41l47 47q18 18 45 18h131q56 0 93.5 -37t37.5 -92v-244q0 -23 -18 -41l-47 -47q-18 -18 -45 -18h-131q-56 0 -93.5 37t-37.5 92zM108 120q0 -36 23.5 -59t60.5 -23h127l57 58v247q0 36 -23.5 59t-60.5 23h-127l-57 -58v-247zM133 529l87 114h45 l86 -114h-48l-61 77l-62 -77h-47z" />
<glyph unicode="&#xf5;" horiz-adv-x="484" d="M56 121v244q0 23 18 41l47 47q18 18 45 18h131q56 0 93.5 -37t37.5 -92v-244q0 -23 -18 -41l-47 -47q-18 -18 -45 -18h-131q-56 0 -93.5 37t-37.5 92zM108 120q0 -36 23.5 -59t60.5 -23h127l57 58v247q0 36 -23.5 59t-60.5 23h-127l-57 -58v-247zM109 582q33 60 79 60 q20 0 59 -22q37 -21 50 -21q25 0 49 40l30 -22q-33 -60 -81 -60q-24 0 -52 17q-5 3 -16 9.5t-15.5 9.5t-12 5.5t-13.5 2.5q-23 0 -47 -40z" />
<glyph unicode="&#xf6;" horiz-adv-x="484" d="M56 121v244q0 23 18 41l47 47q18 18 45 18h131q56 0 93.5 -37t37.5 -92v-244q0 -23 -18 -41l-47 -47q-18 -18 -45 -18h-131q-56 0 -93.5 37t-37.5 92zM108 120q0 -36 23.5 -59t60.5 -23h127l57 58v247q0 36 -23.5 59t-60.5 23h-127l-57 -58v-247zM121 601v9q0 13 10 23 t22 10h10q12 0 22.5 -10t10.5 -23v-9q0 -13 -10.5 -22.5t-22.5 -9.5h-10q-12 0 -22 9.5t-10 22.5zM289 601v9q0 13 10 23t22 10h10q12 0 22.5 -10t10.5 -23v-9q0 -13 -10.5 -22.5t-22.5 -9.5h-10q-12 0 -22 9.5t-10 22.5z" />
<glyph unicode="&#xf7;" horiz-adv-x="575" d="M90 291v41h397v-41h-397zM255 150v6q0 12 9 20.5t20 8.5h7q11 0 20 -8.5t9 -20.5v-6q0 -12 -9 -21t-20 -9h-7q-11 0 -20 9t-9 21zM255 467v6q0 12 9 20.5t20 8.5h7q11 0 20 -8.5t9 -20.5v-6q0 -12 -9 -21t-20 -9h-7q-11 0 -20 9t-9 21z" />
<glyph unicode="&#xf8;" horiz-adv-x="502" d="M43 -29l49 67q-28 34 -28 83v244q0 23 18 41l47 47q18 18 45 18h131q48 0 85 -29l43 59h26v-9l-51 -69q28 -34 28 -81v-244q0 -23 -18 -41l-47 -47q-18 -18 -45 -18h-131q-48 0 -84 28l-42 -58h-26v9zM116 120q0 -20 8 -38l236 320q-25 23 -60 23h-127l-57 -58v-247z M141 60q24 -22 59 -22h127l57 58v247q0 18 -8 36z" />
<glyph unicode="&#xf9;" horiz-adv-x="500" d="M66 121v342h52v-343q0 -36 23.5 -59t60.5 -23h93l90 78v347h52v-350q0 -53 6 -113h-38l-15 67l-69 -61q-14 -14 -34 -14h-90q-56 0 -93.5 37t-37.5 92zM170 581v58l169 -72v-34z" />
<glyph unicode="&#xfa;" horiz-adv-x="500" d="M66 121v342h52v-343q0 -36 23.5 -59t60.5 -23h93l90 78v347h52v-350q0 -53 6 -113h-38l-15 67l-69 -61q-14 -14 -34 -14h-90q-56 0 -93.5 37t-37.5 92zM170 532v35l169 72v-58z" />
<glyph unicode="&#xfb;" horiz-adv-x="500" d="M66 121v342h52v-343q0 -36 23.5 -59t60.5 -23h93l90 78v347h52v-350q0 -53 6 -113h-38l-15 67l-69 -61q-14 -14 -34 -14h-90q-56 0 -93.5 37t-37.5 92zM145 529l87 114h45l86 -114h-48l-61 77l-62 -77h-47z" />
<glyph unicode="&#xfc;" horiz-adv-x="500" d="M66 121v342h52v-343q0 -36 23.5 -59t60.5 -23h93l90 78v347h52v-350q0 -53 6 -113h-38l-15 67l-69 -61q-14 -14 -34 -14h-90q-56 0 -93.5 37t-37.5 92zM133 601v9q0 13 10 23t22 10h10q12 0 22.5 -10t10.5 -23v-9q0 -13 -10.5 -22.5t-22.5 -9.5h-10q-12 0 -22 9.5 t-10 22.5zM301 601v9q0 13 10 23t22 10h10q12 0 22.5 -10t10.5 -23v-9q0 -13 -10.5 -22.5t-22.5 -9.5h-10q-12 0 -22 9.5t-10 22.5z" />
<glyph unicode="&#xfd;" horiz-adv-x="408" d="M9 463h55l147 -387l133 387h55l-195 -556q-7 -21 -31 -34l-112 -60l-19 40l116 66l30 88zM120 532v35l169 72v-58z" />
<glyph unicode="&#xfe;" horiz-adv-x="493" d="M64 -181v825h52v-244l64 57q14 14 34 14h90q56 0 93.5 -37t37.5 -92v-244q0 -23 -18 -41l-47 -47q-18 -18 -45 -18h-209v-173h-52zM116 38h210l57 58v247q0 36 -23.5 59t-60.5 23h-93l-90 -78v-309z" />
<glyph unicode="&#xff;" horiz-adv-x="408" d="M9 463h55l147 -387l133 387h55l-195 -556q-7 -21 -31 -34l-112 -60l-19 40l116 66l30 88zM83 601v9q0 13 10 23t22 10h10q12 0 22.5 -10t10.5 -23v-9q0 -13 -10.5 -22.5t-22.5 -9.5h-10q-12 0 -22 9.5t-10 22.5zM251 601v9q0 13 10 23t22 10h10q12 0 22.5 -10t10.5 -23 v-9q0 -13 -10.5 -22.5t-22.5 -9.5h-10q-12 0 -22 9.5t-10 22.5z" />
<glyph unicode="&#x131;" horiz-adv-x="288" d="M36 0v43h88v377h-77v43h129v-420h88v-43h-228z" />
<glyph unicode="&#x141;" horiz-adv-x="432" d="M-6 262v38l71 38v306h55v-277l138 75v-39l-138 -74v-281h287v-48h-342v300z" />
<glyph unicode="&#x142;" horiz-adv-x="276" d="M30 283v35l82 45v281h52v-253l82 46v-38l-82 -44v-242q0 -65 6 -113h-52q-6 42 -6 96v231z" />
<glyph unicode="&#x152;" horiz-adv-x="775" d="M60 131v401q0 22 17 39l55 57q15 16 43 16h561v-48h-287v-248h236v-47h-236v-253h287v-48h-544q-56 0 -94 37.5t-38 93.5zM115 130q0 -36 22.5 -59t58.5 -23h198v548h-222l-57 -59v-407z" />
<glyph unicode="&#x153;" horiz-adv-x="725" d="M57 121v244q0 23 18 41l47 47q18 18 45 18h91q70 0 108 -54l36 36q18 18 45 18h91q56 0 93.5 -37t37.5 -92v-128h-280v-94q0 -36 23.5 -59t60.5 -23h110l46 49l32 -22l-55 -60q-13 -13 -36 -13h-102q-70 0 -108 54l-36 -36q-18 -18 -45 -18h-91q-56 0 -93.5 37t-37.5 92z M109 120q0 -36 23.5 -59t60.5 -23h87l57 58v247q0 36 -23.5 59t-60.5 23h-87l-57 -58v-247zM389 257h228v86q0 36 -23.5 59t-60.5 23h-87l-57 -58v-110z" />
<glyph unicode="&#x160;" horiz-adv-x="518" d="M38 93l37 28l57 -56q25 -25 58 -25h172l57 59v107q0 30 -15.5 51t-42.5 27l-207 45q-42 9 -69 45t-27 86v80q0 22 17 39l55 57q15 16 43 16h146q56 0 95 -42l55 -59l-39 -30l-56 58q-24 25 -57 25h-147l-57 -59v-89q0 -30 15.5 -51t42.5 -27l207 -45q42 -9 69 -45t27 -86 v-98q0 -22 -17 -39l-55 -57q-15 -16 -43 -16h-181q-48 0 -86 42zM147 806h47l62 -77l61 77h48l-86 -114h-45z" />
<glyph unicode="&#x161;" horiz-adv-x="433" d="M46 61l32 24l20 -20q27 -27 54 -27h127l57 58v34q0 55 -48 66l-167 37q-33 7 -54 33t-21 58v41q0 23 18 41l47 47q18 18 45 18h116q45 0 84 -42l25 -27l-32 -24l-20 20q-27 27 -54 27h-120l-57 -58v-22q0 -55 48 -66l167 -37q33 -7 54 -33t21 -58v-53q0 -23 -18 -41 l-47 -47q-18 -18 -45 -18h-123q-45 0 -84 42zM108 643h47l62 -77l61 77h48l-86 -114h-45z" />
<glyph unicode="&#x178;" horiz-adv-x="480" d="M9 644h60l127 -270q14 -31 44 -31t44 31l127 270h60l-140 -298q-22 -47 -64 -54v-292h-54v292q-42 7 -64 54zM119 730v9q0 13 10 23t22 10h10q12 0 22.5 -10t10.5 -23v-9q0 -13 -10.5 -22.5t-22.5 -9.5h-10q-12 0 -22 9.5t-10 22.5zM287 730v9q0 13 10 23t22 10h10 q12 0 22.5 -10t10.5 -23v-9q0 -13 -10.5 -22.5t-22.5 -9.5h-10q-12 0 -22 9.5t-10 22.5z" />
<glyph unicode="&#x17d;" horiz-adv-x="467" d="M34 0v85q0 21 14 40l321 413q9 13 9 28v30h-320v48h375v-84q0 -27 -12 -42l-323 -411q-9 -12 -9 -28v-31h344v-48h-399zM134 806h47l62 -77l61 77h48l-86 -114h-45z" />
<glyph unicode="&#x17e;" horiz-adv-x="419" d="M32 0v67q0 28 18 46l266 260q8 8 8 25v22h-281v43h331v-67q0 -28 -18 -46l-266 -260q-8 -8 -8 -25v-22h305v-43h-355zM99 643h47l62 -77l61 77h48l-86 -114h-45z" />
<glyph unicode="&#x192;" horiz-adv-x="517" d="M96 -148l4 44l49 -8l53 49l37 402h-64l4 43h66l15 164q2 24 24 44l42 39q22 20 45 17l50 -6l-6 -45l-50 8l-53 -49l-13 -172h80l-4 -43h-82l-37 -396q-2 -20 -24 -41l-44 -40q-21 -19 -46 -16z" />
<glyph unicode="&#x2c6;" horiz-adv-x="356" d="M69 529l87 114h45l86 -114h-48l-61 77l-62 -77h-47z" />
<glyph unicode="&#x2c7;" horiz-adv-x="356" d="M69 643h47l62 -77l61 77h48l-86 -114h-45z" />
<glyph unicode="&#x2d8;" horiz-adv-x="422" d="M76 643h37q25 -77 97 -77q69 0 97 77h37q-13 -51 -47.5 -86t-86.5 -35t-86.5 35t-47.5 86z" />
<glyph unicode="&#x2d9;" horiz-adv-x="213" d="M68 593v9q0 13 10 23t22 10h10q12 0 22.5 -10t10.5 -23v-9q0 -13 -10.5 -22.5t-22.5 -9.5h-10q-12 0 -22 9.5t-10 22.5z" />
<glyph unicode="&#x2da;" horiz-adv-x="300" d="M60 601q0 37 26 63.5t64 26.5t64 -26.5t26 -63.5t-26 -63.5t-64 -26.5t-64 26.5t-26 63.5zM92 601q0 -25 16.5 -41.5t41.5 -16.5t42 16.5t17 41.5t-17 42t-42 17t-41.5 -17t-16.5 -42z" />
<glyph unicode="&#x2db;" horiz-adv-x="288" d="M78 -96q0 32 30.5 55.5t77.5 32.5h36q-98 -26 -98 -70q0 -36 50 -38q22 0 40 6v-35q-30 -10 -58 -10q-34 0 -56 16t-22 43z" />
<glyph unicode="&#x2dc;" horiz-adv-x="422" d="M79 582q33 60 79 60q20 0 59 -22q37 -21 50 -21q25 0 49 40l30 -22q-33 -60 -81 -60q-24 0 -52 17q-5 3 -16 9.5t-15.5 9.5t-12 5.5t-13.5 2.5q-23 0 -47 -40z" />
<glyph unicode="&#x2dd;" horiz-adv-x="383" d="M73 529l55 114h61l-84 -114h-32zM198 529l55 114h60l-84 -114h-31z" />
<glyph unicode="&#x3c0;" d="M91 372q0 50 2 79t10 55t20 38t37.5 21t56 11t81.5 2t81.5 -2t56 -11t37 -21t20 -38t10 -55t1.5 -79t-1.5 -79t-10 -55.5t-20 -38t-37 -21t-56 -11.5t-81.5 -2t-81.5 2t-56 11t-37.5 21t-20 38t-10 55.5t-2 79.5zM148 323l32 -56l105 82l-19 -131h65l-20 131l105 -82 l32 56l-123 50l123 49l-32 56l-105 -82l19 131h-64l19 -131l-105 81l-32 -56l123 -48z" />
<glyph unicode="&#x2000;" horiz-adv-x="403" />
<glyph unicode="&#x2001;" horiz-adv-x="806" />
<glyph unicode="&#x2002;" horiz-adv-x="403" />
<glyph unicode="&#x2003;" horiz-adv-x="806" />
<glyph unicode="&#x2004;" horiz-adv-x="268" />
<glyph unicode="&#x2005;" horiz-adv-x="201" />
<glyph unicode="&#x2006;" horiz-adv-x="134" />
<glyph unicode="&#x2007;" horiz-adv-x="134" />
<glyph unicode="&#x2008;" horiz-adv-x="100" />
<glyph unicode="&#x2009;" horiz-adv-x="161" />
<glyph unicode="&#x200a;" horiz-adv-x="44" />
<glyph unicode="&#x2010;" horiz-adv-x="203" d="M9 272v41h185v-41h-185z" />
<glyph unicode="&#x2011;" horiz-adv-x="203" d="M9 272v41h185v-41h-185z" />
<glyph unicode="&#x2012;" horiz-adv-x="203" d="M9 272v41h185v-41h-185z" />
<glyph unicode="&#x2013;" horiz-adv-x="372" d="M9 272v41h354v-41h-354z" />
<glyph unicode="&#x2014;" horiz-adv-x="677" d="M9 272v41h658v-41h-658z" />
<glyph unicode="&#x2018;" horiz-adv-x="157" d="M52 544v7q0 17 7 32l29 63h29l-26 -62q12 -1 20.5 -10t8.5 -23v-7q0 -13 -8.5 -22.5t-20.5 -9.5h-9q-13 0 -21.5 9.5t-8.5 22.5z" />
<glyph unicode="&#x2019;" horiz-adv-x="157" d="M37 607v7q0 13 8.5 22.5t20.5 9.5h9q13 0 21.5 -9.5t8.5 -22.5v-7q0 -17 -7 -32l-29 -63h-29l26 62q-12 1 -20.5 10t-8.5 23z" />
<glyph unicode="&#x201a;" horiz-adv-x="157" d="M37 30v7q0 13 8.5 22.5t20.5 9.5h9q13 0 21.5 -9.5t8.5 -22.5v-7q0 -17 -7 -32l-29 -63h-29l26 62q-12 1 -20.5 10t-8.5 23z" />
<glyph unicode="&#x201c;" horiz-adv-x="258" d="M52 544v7q0 17 7 32l29 63h29l-26 -62q12 -1 20.5 -10t8.5 -23v-7q0 -13 -8.5 -22.5t-20.5 -9.5h-9q-13 0 -21.5 9.5t-8.5 22.5zM152 544v7q0 17 7 32l29 63h29l-26 -62q12 -1 20.5 -10t8.5 -23v-7q0 -13 -8.5 -22.5t-20.5 -9.5h-9q-13 0 -21.5 9.5t-8.5 22.5z" />
<glyph unicode="&#x201d;" horiz-adv-x="259" d="M37 607v7q0 13 8.5 22.5t20.5 9.5h9q13 0 21.5 -9.5t8.5 -22.5v-7q0 -17 -7 -32l-29 -63h-29l26 62q-12 1 -20.5 10t-8.5 23zM137 607v7q0 13 8.5 22.5t20.5 9.5h9q13 0 21.5 -9.5t8.5 -22.5v-7q0 -17 -7 -32l-29 -63h-29l26 62q-12 1 -20.5 10t-8.5 23z" />
<glyph unicode="&#x201e;" horiz-adv-x="259" d="M37 30v7q0 13 8.5 22.5t20.5 9.5h9q13 0 21.5 -9.5t8.5 -22.5v-7q0 -17 -7 -32l-29 -63h-29l26 62q-12 1 -20.5 10t-8.5 23zM137 30v7q0 13 8.5 22.5t20.5 9.5h9q13 0 21.5 -9.5t8.5 -22.5v-7q0 -17 -7 -32l-29 -63h-29l26 62q-12 1 -20.5 10t-8.5 23z" />
<glyph unicode="&#x2020;" horiz-adv-x="471" d="M67 409v51h54l86 -5v191h57v-191l87 5h53v-51h-53l-87 4v-333l-9 -203h-39l-9 203v333l-86 -4h-54z" />
<glyph unicode="&#x2021;" horiz-adv-x="471" d="M67 63v50h54l86 -4v83l6 65q0 4 -6 65v91l-86 -4h-54v51h54l86 -5v191h57v-191l87 5h53v-51h-53l-87 4v-89l-7 -67l7 -66v-82l87 4h53v-50h-53l-87 4v-190h-57v190l-86 -4h-54z" />
<glyph unicode="&#x2022;" horiz-adv-x="374" d="M79 310v22q0 39 28.5 67.5t66.5 28.5h24q37 0 66.5 -29t29.5 -67v-22q0 -38 -29.5 -67t-66.5 -29h-24q-38 0 -66.5 28.5t-28.5 67.5z" />
<glyph unicode="&#x2026;" horiz-adv-x="683" d="M50 30v7q0 13 9.5 22.5t22.5 9.5h8q13 0 23 -9.5t10 -22.5v-7q0 -13 -10 -23t-23 -10h-8q-13 0 -22.5 10t-9.5 23zM300 30v7q0 13 9.5 22.5t22.5 9.5h8q13 0 23 -9.5t10 -22.5v-7q0 -13 -10 -23t-23 -10h-8q-13 0 -22.5 10t-9.5 23zM560 30v7q0 13 9.5 22.5t22.5 9.5h8 q13 0 23 -9.5t10 -22.5v-7q0 -13 -10 -23t-23 -10h-8q-13 0 -22.5 10t-9.5 23z" />
<glyph unicode="&#x202f;" horiz-adv-x="161" />
<glyph unicode="&#x2030;" horiz-adv-x="874" d="M48 419v185q0 10 7 17l24 24q6 7 19 7h97q13 0 19 -7l24 -24q7 -7 7 -17v-185q0 -10 -7 -17l-24 -24q-6 -7 -19 -7h-97q-13 0 -19 7l-24 24q-7 7 -7 17zM71 417l25 -26h101l25 26v189l-25 26h-101l-25 -26v-189zM117 0l354 652h24l-354 -652h-24zM365 48v185q0 10 7 17 l24 24q6 7 19 7h97q13 0 19 -7l24 -24q7 -7 7 -17v-185q0 -10 -7 -17l-24 -24q-6 -7 -19 -7h-97q-13 0 -19 7l-24 24q-7 7 -7 17zM388 46l25 -26h101l25 26v189l-25 26h-101l-25 -26v-189zM631 48v185q0 10 7 17l24 24q6 7 19 7h97q13 0 19 -7l24 -24q7 -7 7 -17v-185 q0 -10 -7 -17l-24 -24q-6 -7 -19 -7h-97q-13 0 -19 7l-24 24q-7 7 -7 17zM654 46l25 -26h101l25 26v189l-25 26h-101l-25 -26v-189z" />
<glyph unicode="&#x2039;" horiz-adv-x="300" d="M49 286v12l157 157h42l-158 -159v-8l161 -162h-42z" />
<glyph unicode="&#x203a;" horiz-adv-x="300" d="M49 126l161 162v8l-158 159h42l157 -157v-12l-160 -160h-42z" />
<glyph unicode="&#x2044;" horiz-adv-x="142" d="M-118 0l354 652h24l-354 -652h-24z" />
<glyph unicode="&#x205f;" horiz-adv-x="201" />
<glyph unicode="&#x20ac;" horiz-adv-x="510" d="M4 245v39h71v79h-71v39h71v138q0 22 17 39l55 57q15 16 43 16h125q56 0 95 -42l55 -59l-39 -30l-56 58q-24 25 -57 25h-126l-57 -59v-143h177l-12 -39h-165v-79h140l-12 -39h-128v-123q0 -36 22.5 -59t58.5 -23h144l82 82l37 -27l-79 -88q-15 -15 -42 -15h-146 q-56 0 -94 37.5t-38 93.5v122h-71z" />
<glyph unicode="&#x2117;" horiz-adv-x="695" d="M25 323q0 133 94.5 228t228.5 95q133 0 227.5 -95t94.5 -228q0 -134 -94.5 -228.5t-227.5 -94.5q-134 0 -228.5 94.5t-94.5 228.5zM56 323q0 -120 85.5 -206t206.5 -86q120 0 206 86t86 206t-86 206t-206 86q-121 0 -206.5 -86t-85.5 -206zM250 124v396h154 q35 0 58.5 -23t23.5 -59v-82q0 -16 -10 -26l-32 -34q-9 -10 -28 -10h-129v-162h-37zM287 321h128l33 35v83q0 20 -13 33t-33 13h-115v-164z" />
<glyph unicode="&#x2122;" horiz-adv-x="652" d="M38 616v30h217v-30h-93v-320h-31v320h-93zM315 296v350h36l86 -215l87 215h36v-350h-31l-1 283l-81 -201h-19l-81 201l-1 -283h-31z" />
<glyph unicode="&#x2126;" d="M91 372q0 50 2 79t10 55t20 38t37.5 21t56 11t81.5 2t81.5 -2t56 -11t37 -21t20 -38t10 -55t1.5 -79t-1.5 -79t-10 -55.5t-20 -38t-37 -21t-56 -11.5t-81.5 -2t-81.5 2t-56 11t-37.5 21t-20 38t-10 55.5t-2 79.5zM148 323l32 -56l105 82l-19 -131h65l-20 131l105 -82 l32 56l-123 50l123 49l-32 56l-105 -82l19 131h-64l19 -131l-105 81l-32 -56l123 -48z" />
<glyph unicode="&#x2202;" d="M91 372q0 50 2 79t10 55t20 38t37.5 21t56 11t81.5 2t81.5 -2t56 -11t37 -21t20 -38t10 -55t1.5 -79t-1.5 -79t-10 -55.5t-20 -38t-37 -21t-56 -11.5t-81.5 -2t-81.5 2t-56 11t-37.5 21t-20 38t-10 55.5t-2 79.5zM148 323l32 -56l105 82l-19 -131h65l-20 131l105 -82 l32 56l-123 50l123 49l-32 56l-105 -82l19 131h-64l19 -131l-105 81l-32 -56l123 -48z" />
<glyph unicode="&#x2206;" d="M91 372q0 50 2 79t10 55t20 38t37.5 21t56 11t81.5 2t81.5 -2t56 -11t37 -21t20 -38t10 -55t1.5 -79t-1.5 -79t-10 -55.5t-20 -38t-37 -21t-56 -11.5t-81.5 -2t-81.5 2t-56 11t-37.5 21t-20 38t-10 55.5t-2 79.5zM148 323l32 -56l105 82l-19 -131h65l-20 131l105 -82 l32 56l-123 50l123 49l-32 56l-105 -82l19 131h-64l19 -131l-105 81l-32 -56l123 -48z" />
<glyph unicode="&#x220f;" d="M91 372q0 50 2 79t10 55t20 38t37.5 21t56 11t81.5 2t81.5 -2t56 -11t37 -21t20 -38t10 -55t1.5 -79t-1.5 -79t-10 -55.5t-20 -38t-37 -21t-56 -11.5t-81.5 -2t-81.5 2t-56 11t-37.5 21t-20 38t-10 55.5t-2 79.5zM148 323l32 -56l105 82l-19 -131h65l-20 131l105 -82 l32 56l-123 50l123 49l-32 56l-105 -82l19 131h-64l19 -131l-105 81l-32 -56l123 -48z" />
<glyph unicode="&#x2211;" d="M91 372q0 50 2 79t10 55t20 38t37.5 21t56 11t81.5 2t81.5 -2t56 -11t37 -21t20 -38t10 -55t1.5 -79t-1.5 -79t-10 -55.5t-20 -38t-37 -21t-56 -11.5t-81.5 -2t-81.5 2t-56 11t-37.5 21t-20 38t-10 55.5t-2 79.5zM148 323l32 -56l105 82l-19 -131h65l-20 131l105 -82 l32 56l-123 50l123 49l-32 56l-105 -82l19 131h-64l19 -131l-105 81l-32 -56l123 -48z" />
<glyph unicode="&#x2212;" horiz-adv-x="575" d="M90 291v41h397v-41h-397z" />
<glyph unicode="&#x221a;" d="M91 372q0 50 2 79t10 55t20 38t37.5 21t56 11t81.5 2t81.5 -2t56 -11t37 -21t20 -38t10 -55t1.5 -79t-1.5 -79t-10 -55.5t-20 -38t-37 -21t-56 -11.5t-81.5 -2t-81.5 2t-56 11t-37.5 21t-20 38t-10 55.5t-2 79.5zM148 323l32 -56l105 82l-19 -131h65l-20 131l105 -82 l32 56l-123 50l123 49l-32 56l-105 -82l19 131h-64l19 -131l-105 81l-32 -56l123 -48z" />
<glyph unicode="&#x221e;" d="M91 372q0 50 2 79t10 55t20 38t37.5 21t56 11t81.5 2t81.5 -2t56 -11t37 -21t20 -38t10 -55t1.5 -79t-1.5 -79t-10 -55.5t-20 -38t-37 -21t-56 -11.5t-81.5 -2t-81.5 2t-56 11t-37.5 21t-20 38t-10 55.5t-2 79.5zM148 323l32 -56l105 82l-19 -131h65l-20 131l105 -82 l32 56l-123 50l123 49l-32 56l-105 -82l19 131h-64l19 -131l-105 81l-32 -56l123 -48z" />
<glyph unicode="&#x222b;" d="M91 372q0 50 2 79t10 55t20 38t37.5 21t56 11t81.5 2t81.5 -2t56 -11t37 -21t20 -38t10 -55t1.5 -79t-1.5 -79t-10 -55.5t-20 -38t-37 -21t-56 -11.5t-81.5 -2t-81.5 2t-56 11t-37.5 21t-20 38t-10 55.5t-2 79.5zM148 323l32 -56l105 82l-19 -131h65l-20 131l105 -82 l32 56l-123 50l123 49l-32 56l-105 -82l19 131h-64l19 -131l-105 81l-32 -56l123 -48z" />
<glyph unicode="&#x2248;" d="M91 372q0 50 2 79t10 55t20 38t37.5 21t56 11t81.5 2t81.5 -2t56 -11t37 -21t20 -38t10 -55t1.5 -79t-1.5 -79t-10 -55.5t-20 -38t-37 -21t-56 -11.5t-81.5 -2t-81.5 2t-56 11t-37.5 21t-20 38t-10 55.5t-2 79.5zM148 323l32 -56l105 82l-19 -131h65l-20 131l105 -82 l32 56l-123 50l123 49l-32 56l-105 -82l19 131h-64l19 -131l-105 81l-32 -56l123 -48z" />
<glyph unicode="&#x2260;" d="M91 372q0 50 2 79t10 55t20 38t37.5 21t56 11t81.5 2t81.5 -2t56 -11t37 -21t20 -38t10 -55t1.5 -79t-1.5 -79t-10 -55.5t-20 -38t-37 -21t-56 -11.5t-81.5 -2t-81.5 2t-56 11t-37.5 21t-20 38t-10 55.5t-2 79.5zM148 323l32 -56l105 82l-19 -131h65l-20 131l105 -82 l32 56l-123 50l123 49l-32 56l-105 -82l19 131h-64l19 -131l-105 81l-32 -56l123 -48z" />
<glyph unicode="&#x2264;" horiz-adv-x="575" d="M90 113v41h397v-41h-397zM90 355v24l397 129v-39l-303 -103l303 -93v-42z" />
<glyph unicode="&#x2265;" horiz-adv-x="575" d="M90 105v41h397v-41h-397zM90 231v42l303 93l-303 103v39l397 -129v-24z" />
<glyph unicode="&#x25ca;" d="M91 372q0 50 2 79t10 55t20 38t37.5 21t56 11t81.5 2t81.5 -2t56 -11t37 -21t20 -38t10 -55t1.5 -79t-1.5 -79t-10 -55.5t-20 -38t-37 -21t-56 -11.5t-81.5 -2t-81.5 2t-56 11t-37.5 21t-20 38t-10 55.5t-2 79.5zM148 323l32 -56l105 82l-19 -131h65l-20 131l105 -82 l32 56l-123 50l123 49l-32 56l-105 -82l19 131h-64l19 -131l-105 81l-32 -56l123 -48z" />
<glyph unicode="&#x25fc;" horiz-adv-x="465" d="M0 0v465h465v-465h-465z" />
<glyph unicode="&#xf8ff;" d="M91 372q0 50 2 79t10 55t20 38t37.5 21t56 11t81.5 2t81.5 -2t56 -11t37 -21t20 -38t10 -55t1.5 -79t-1.5 -79t-10 -55.5t-20 -38t-37 -21t-56 -11.5t-81.5 -2t-81.5 2t-56 11t-37.5 21t-20 38t-10 55.5t-2 79.5zM148 323l32 -56l105 82l-19 -131h65l-20 131l105 -82 l32 56l-123 50l123 49l-32 56l-105 -82l19 131h-64l19 -131l-105 81l-32 -56l123 -48z" />
<glyph horiz-adv-x="647" d="M90 246v26l182 183q16 16 42 16h12v-16l-179 -177h410v-38h-410l179 -177v-16h-12q-26 0 -42 16z" />
<glyph horiz-adv-x="604" d="M90 256v12q0 26 16 42l183 182h26l183 -182q16 -16 16 -42v-12h-16l-177 179v-410h-38v410l-177 -179h-16z" />
<glyph horiz-adv-x="647" d="M90 240v38h410l-179 177v16h12q26 0 42 -16l182 -183v-26l-182 -183q-16 -16 -42 -16h-12v16l179 177h-410z" />
<glyph horiz-adv-x="604" d="M90 249v12h16l177 -179v410h38v-410l177 179h16v-12q0 -26 -16 -42l-183 -182h-26l-183 182q-16 16 -16 42z" />
<glyph horiz-adv-x="534" d="M90 161l1 258l19 18l258 1q25 0 41 -18l8 -9l-11 -11l-252 1l290 -290l-27 -27l-290 290l2 -251l-12 -12l-8 9q-19 21 -19 41z" />
<glyph horiz-adv-x="534" d="M90 111l290 290l-252 -1l-11 11l8 9q16 18 41 18l258 -1l19 -18l1 -258q0 -20 -19 -41l-8 -9l-12 12l2 251l-290 -290z" />
<glyph horiz-adv-x="534" d="M90 411l27 27l290 -290l-2 251l12 12l8 -9q19 -21 19 -41l-1 -258l-19 -18l-258 -1q-25 0 -41 18l-8 9l11 11l252 -1z" />
<glyph horiz-adv-x="534" d="M90 361q0 20 19 41l8 9l12 -12l-2 -251l290 290l27 -27l-290 -290l252 1l11 -11l-8 -9q-16 -18 -41 -18l-258 1l-19 18z" />
</font>
</defs>
</svg>
